<?xml version="1.0" standalone="no"?>
<!DOCTYPE svg PUBLIC "-//W3C//DTD SVG 1.1//EN" "http://www.w3.org/Graphics/SVG/1.1/DTD/svg11.dtd" >
<svg xmlns="http://www.w3.org/2000/svg" xmlns:xlink="http://www.w3.org/1999/xlink" version="1.1">
<metadata></metadata>
<defs>
<font id="degularmedium" horiz-adv-x="1089" >
<font-face units-per-em="2048" ascent="1638" descent="-410" />
<missing-glyph horiz-adv-x="397" />
<glyph horiz-adv-x="0" />
<glyph horiz-adv-x="682" />
<glyph horiz-adv-x="0" />
<glyph horiz-adv-x="0" />
<glyph unicode="&#xd;" horiz-adv-x="397" />
<glyph unicode=" "  horiz-adv-x="397" />
<glyph unicode="&#x09;" horiz-adv-x="397" />
<glyph unicode="&#xa0;" horiz-adv-x="397" />
<glyph unicode="!" horiz-adv-x="489" d="M133 0v219h223v-219h-223zM154 438v791h180v-791h-180z" />
<glyph unicode="&#x22;" horiz-adv-x="686" d="M90 1229h189l-29 -547h-123zM408 1229h188l-29 -547h-123z" />
<glyph unicode="#" horiz-adv-x="1394" d="M72 309v162h315l27 287h-342v164h356l29 307h153l-30 -307h290l27 307h156l-31 -307h299v-164h-315l-31 -287h346v-162h-363l-30 -309h-142l27 309h-295l-33 -309h-141l29 309h-301zM514 455h332l28 321h-327z" />
<glyph unicode="$" horiz-adv-x="1132" d="M59 383l179 39q50 -285 360 -285q142 0 211.5 49.5t69.5 137.5q0 89 -70.5 137t-253.5 80q-242 42 -343 132t-101 234q0 146 103 233.5t300 96.5l-12 221h157l-12 -223q174 -18 265 -106t124 -240l-186 -37q-29 127 -93.5 184.5t-201.5 57.5q-129 0 -194.5 -46 t-65.5 -130q0 -40 13.5 -70t49 -58t101 -50.5t164.5 -41.5q130 -24 219 -59.5t137 -83t68 -99.5t20 -120q0 -154 -103 -244t-317 -100l12 -246h-157l12 246q-406 34 -455 391z" />
<glyph unicode="%" horiz-adv-x="1519" d="M68 905q0 161 89 252.5t242 91.5q152 0 241 -92t89 -252q0 -162 -89.5 -256t-240.5 -94q-153 0 -242 94t-89 256zM135 0v12l547 533l45 -39l-352 -506h-240zM211 905q0 -106 47.5 -164.5t138.5 -58.5t140 59t49 164q0 104 -49.5 161.5t-137.5 57.5q-90 0 -139 -57 t-49 -162zM793 330q0 161 89 252.5t242 91.5q152 0 241 -92t89 -252q0 -162 -89.5 -256t-240.5 -94q-153 0 -242 94t-89 256zM803 723l350 506h240v-12l-545 -533zM936 330q0 -106 47.5 -165t138.5 -59t140 59t49 165q0 104 -49.5 161.5t-137.5 57.5q-89 0 -138.5 -57.5 t-49.5 -161.5z" />
<glyph unicode="&#x26;" horiz-adv-x="1382" d="M55 305q0 134 75 218t216 141q-59 136 -59 249q0 85 29 151t79 106t113.5 60.5t136.5 20.5q163 0 244.5 -72.5t81.5 -191.5q0 -65 -27.5 -119t-68.5 -89.5t-103 -65t-115 -45.5t-120 -31q59 -106 146 -201t191 -162q188 214 230 484l162 -21q-21 -153 -99.5 -283.5 t-203.5 -228.5q140 -65 272 -65q69 0 102 2l6 -166q-51 -10 -118 -10q-204 0 -408 127q-65 -62 -165.5 -97.5t-217.5 -35.5q-174 0 -276.5 84t-102.5 241zM219 340q0 -101 68 -160t194 -59q130 0 242 59q-221 173 -344 416q-160 -79 -160 -256zM455 913q0 -91 45 -200 q156 43 232.5 106t76.5 154q0 67 -39 105t-121 38q-90 0 -142 -53t-52 -150z" />
<glyph unicode="'" horiz-adv-x="368" d="M90 1229h189l-29 -547h-123z" />
<glyph unicode="(" horiz-adv-x="686" d="M117 520q0 582 397 953l113 -87q-181 -194 -254.5 -401.5t-73.5 -464.5t74 -463.5t254 -402.5l-113 -86q-397 371 -397 952z" />
<glyph unicode=")" horiz-adv-x="686" d="M59 -346q181 194 254.5 401.5t73.5 464.5t-74 463.5t-254 402.5l115 87q397 -374 397 -953q0 -578 -397 -952z" />
<glyph unicode="*" horiz-adv-x="1040" d="M35 948l59 185l338 -170l-24 -76zM162 561l264 268l63 -45l-172 -335zM424 1372h192l-55 -373h-78zM553 784l61 45l267 -268l-156 -112zM610 961l336 172l60 -185l-371 -61z" />
<glyph unicode="+" horiz-adv-x="1019" d="M61 543v162h359v366h180v-366h358v-162h-358v-373h-180v373h-359z" />
<glyph unicode="," horiz-adv-x="358" d="M-41 -287l156 549h182l-207 -561h-131v12z" />
<glyph unicode="-" horiz-adv-x="716" d="M43 412v170h631v-170h-631z" />
<glyph unicode="." horiz-adv-x="376" d="M78 0v219h221v-219h-221z" />
<glyph unicode="/" horiz-adv-x="643" d="M29 -309l413 1624h181l-410 -1624h-184z" />
<glyph unicode="0" horiz-adv-x="1175" d="M78 616q0 297 138 467t384 170q247 0 384.5 -170t137.5 -467q0 -298 -136 -469.5t-386 -171.5q-249 0 -385.5 172t-136.5 469zM264 616q0 -222 83.5 -349.5t250.5 -127.5q169 0 253.5 127.5t84.5 349.5q0 223 -84 348.5t-252 125.5t-252 -125.5t-84 -348.5z" />
<glyph unicode="1" horiz-adv-x="933" d="M61 1083l439 146h104v-1067h260v-162h-776v162h336v899q-152 -78 -301 -131z" />
<glyph unicode="2" horiz-adv-x="1161" d="M78 109q0 203 97.5 307t328.5 172q214 62 294.5 127t80.5 170q0 97 -64 154t-194 57q-147 0 -227 -83.5t-103 -256.5l-174 24q63 471 504 471q215 0 328.5 -93.5t113.5 -276.5q0 -85 -32 -152t-96.5 -116.5t-145.5 -85t-193 -66.5q-205 -60 -277.5 -124t-78.5 -194 q222 19 407 19h432v-162h-999q-2 35 -2 109z" />
<glyph unicode="3" horiz-adv-x="1142" d="M66 389l182 25q26 -142 107.5 -212.5t244.5 -70.5q140 0 214.5 57t74.5 158q0 107 -59.5 155t-217.5 48h-209v137h203q107 0 171.5 50t64.5 153q0 109 -60 158t-188 49q-137 0 -205 -63t-94 -193l-174 20q64 389 471 389q217 0 321.5 -79.5t104.5 -245.5 q0 -231 -262 -291v-23q179 -17 249 -81.5t70 -198.5q0 -165 -117.5 -257.5t-359.5 -92.5q-470 0 -532 409z" />
<glyph unicode="4" horiz-adv-x="1181" d="M72 297v137l688 795h219v-783h184v-149h-184v-297h-180v297h-727zM252 442l10 -16q181 20 371 20h166v613l-13 4z" />
<glyph unicode="5" horiz-adv-x="1165" d="M74 322l174 53q47 -118 133 -181t229 -63q149 0 219 60t70 188q0 114 -70 170.5t-219 56.5q-87 0 -167.5 -23.5t-129.5 -58.5l-151 58v647h854v-170q-364 0 -688 20v-428q134 90 334 90q206 0 313.5 -94t107.5 -270q0 -202 -124 -299.5t-353 -97.5q-210 0 -339 82.5 t-193 259.5z" />
<glyph unicode="6" horiz-adv-x="1159" d="M70 592q0 145 29.5 262t91 207.5t165 140t242.5 49.5q113 0 195 -24.5t134.5 -75.5t82.5 -119.5t45 -165.5l-178 -24q-28 131 -90 191.5t-189 60.5q-186 0 -270 -130t-84 -405q0 -45 2 -74l20 -2q77 265 410 265q86 0 156 -19.5t125.5 -60.5t86.5 -110.5t31 -162.5 q0 -198 -123.5 -308t-363.5 -110q-119 0 -211 32t-162.5 102.5t-107.5 191.5t-37 289zM270 381q0 -107 85 -177.5t241 -70.5q297 0 297 266q0 226 -277 226q-170 0 -258 -70.5t-88 -173.5z" />
<glyph unicode="7" horiz-adv-x="1056" d="M27 1061v168h1007v-168q-430 -436 -473 -1061h-205q22 301 158 582.5t365 498.5q-215 -20 -426 -20h-426z" />
<glyph unicode="8" horiz-adv-x="1146" d="M70 319q0 246 331 291v23q-277 58 -274 291q0 155 110 241t336 86q228 0 338.5 -86t110.5 -241q0 -233 -277 -291v-23q332 -45 332 -291q0 -342 -504 -342q-503 0 -503 342zM256 338q0 -99 79 -153t238 -54q160 0 240 54t80 153q0 213 -320 213q-317 0 -317 -213z M305 891q0 -106 71.5 -157.5t196.5 -53.5q126 2 198.5 53.5t72.5 157.5q0 205 -271 205q-268 0 -268 -205z" />
<glyph unicode="9" horiz-adv-x="1161" d="M76 344l176 33q25 -121 102 -181.5t215 -60.5q180 0 262 129t82 402v67l-22 4q-37 -128 -137.5 -195t-261.5 -67q-86 0 -157.5 20.5t-127.5 62t-87.5 112.5t-31.5 166q0 193 124 304t357 111q120 0 212 -32t162 -102t107 -191t37 -289q0 -145 -29 -262t-90 -208 t-163 -140.5t-240 -49.5q-225 0 -341 93.5t-148 273.5zM270 831q0 -115 72.5 -174t206.5 -59q163 0 250.5 71.5t87.5 174.5q0 109 -83.5 180.5t-234.5 71.5q-154 0 -226.5 -72t-72.5 -193z" />
<glyph unicode=":" horiz-adv-x="411" d="M94 0v219h223v-219h-223zM94 739v219h223v-219h-223z" />
<glyph unicode=";" horiz-adv-x="425" d="M-18 -287l157 549h183l-207 -561h-133v12zM100 739v219h224v-219h-224z" />
<glyph unicode="&#x3c;" horiz-adv-x="1056" d="M63 434v182l891 406v-199l-409 -145q-134 -51 -359 -125v-55q170 -51 357 -121l411 -148v-198z" />
<glyph unicode="=" horiz-adv-x="1077" d="M102 367v147h873v-147h-873zM102 723v147h873v-147h-873z" />
<glyph unicode="&#x3e;" horiz-adv-x="1056" d="M90 33v198l412 146q142 55 358 125v55q-156 47 -358 121l-412 147v199l891 -403v-183z" />
<glyph unicode="?" horiz-adv-x="997" d="M37 797q28 215 148 334.5t345 119.5q204 0 313 -88t109 -254q0 -57 -14 -105.5t-37.5 -83t-59 -64.5t-72 -50t-83.5 -39q-115 -50 -115 -161v-21h-174v31q0 92 40.5 148t140.5 106q107 53 147.5 99.5t40.5 127.5q0 97 -60 147t-176 50q-145 0 -219.5 -81.5t-95.5 -240.5z M373 0v219h223v-219h-223z" />
<glyph unicode="@" horiz-adv-x="1712" d="M66 449q0 147 35 282t107.5 251t175.5 202t248 135t316 49q146 0 264 -34.5t199 -94t135.5 -142t79.5 -177t25 -201.5q0 -152 -32 -268t-87.5 -184.5t-125 -103t-151.5 -34.5q-241 0 -241 229q0 33 2 56h-15q-54 -142 -126.5 -213.5t-174.5 -71.5q-103 0 -163 72t-60 217 q0 108 22.5 205.5t65.5 173.5t110.5 121t151.5 45q94 0 149 -55t71 -152h10l26 190h150l-68 -516q-24 -170 109 -170q100 0 164.5 108t64.5 334q0 90 -18 166.5t-60.5 143t-107.5 113.5t-163.5 73.5t-223.5 26.5q-138 0 -254 -41t-198.5 -113t-140.5 -169.5t-86 -211.5 t-28 -239q0 -284 153.5 -414.5t442.5 -130.5q101 0 220.5 23t195.5 59h18v-125q-189 -92 -438 -92q-360 0 -554.5 165t-194.5 513zM635 440q0 -178 123 -178q102 0 177 92.5t95 218.5l8 60q13 92 -33 144t-137 52q-115 0 -174 -105.5t-59 -283.5z" />
<glyph unicode="A" horiz-adv-x="1193" d="M-4 0l477 1229h250l475 -1229h-201l-127 344h-553l-124 -344h-197zM369 487h450l-55 152q-79 212 -143 424h-52q-68 -217 -145 -424z" />
<glyph unicode="B" horiz-adv-x="1163" d="M137 0v1229h500q209 0 309.5 -78.5t100.5 -235.5q0 -227 -242 -286v-17q156 -19 228.5 -85.5t72.5 -194.5q0 -154 -104 -243t-322 -89h-543zM326 147h348q123 0 184.5 53t61.5 146q0 98 -59.5 147.5t-196.5 49.5h-338v-396zM326 682h305q233 0 233 205q0 98 -52 145 t-169 47h-317v-397z" />
<glyph unicode="C" horiz-adv-x="1275" d="M66 616q0 295 157 466t432 171q232 0 373.5 -121.5t175.5 -340.5l-178 -35q-67 331 -373 331q-199 0 -299 -126.5t-100 -344.5q0 -226 98.5 -351.5t296.5 -125.5q167 0 258.5 86t124.5 256l178 -32q-33 -224 -177 -349t-384 -125q-278 0 -430.5 172t-152.5 469z" />
<glyph unicode="D" horiz-adv-x="1294" d="M137 0v1229h479q308 0 461.5 -154.5t153.5 -451.5q0 -291 -162.5 -457t-447.5 -166h-484zM326 158h278q229 0 334.5 119.5t105.5 345.5q0 233 -107.5 340.5t-344.5 107.5h-266v-913z" />
<glyph unicode="E" horiz-adv-x="1093" d="M137 0v1229h854v-166h-665v-356h598v-164h-598v-377h663v-166h-663h-189z" />
<glyph unicode="F" horiz-adv-x="1021" d="M137 0v1229h817v-172h-628v-412h561v-164h-561v-481h-189z" />
<glyph unicode="G" horiz-adv-x="1312" d="M59 598q0 304 152 478.5t442 174.5q235 0 370 -114t173 -328l-176 -39q-36 161 -125 239t-244 78q-401 0 -401 -489q0 -220 100 -339.5t312 -119.5q372 0 372 324l2 -6v14h-381v160h557v-631h-174v279h-18q-43 -135 -146.5 -217t-273.5 -82q-250 0 -395.5 159t-145.5 459 z" />
<glyph unicode="H" horiz-adv-x="1306" d="M137 0v1229h189v-531h655v531h188v-1229h-188v528h-655v-528h-189z" />
<glyph unicode="I" horiz-adv-x="462" d="M137 0v1229h189v-1229h-189z" />
<glyph unicode="J" horiz-adv-x="630" d="M25 -2l10 164q64 -12 119 -12q151 0 151 176v903h189v-901q0 -164 -76.5 -254t-237.5 -90q-66 0 -155 14z" />
<glyph unicode="K" horiz-adv-x="1153" d="M137 0v1229h189v-570h94l493 570h213v-23l-565 -610l592 -573v-23h-219l-506 504h-102v-504h-189z" />
<glyph unicode="L" horiz-adv-x="944" d="M137 0v1229h189v-1059h573v-170h-762z" />
<glyph unicode="M" horiz-adv-x="1630" d="M137 0v1229h314l219 -570q65 -175 133 -393h37q75 251 133 398l225 565h295v-1229h-186v608q0 81 4 256t4 209h-39q-74 -251 -170 -500l-205 -499h-190l-201 508q-81 211 -164 491h-35q2 -117 2 -389v-76v-608h-176z" />
<glyph unicode="N" horiz-adv-x="1308" d="M137 0v1229h273l317 -533q126 -214 250 -497l39 2q-21 353 -21 567v461h176v-1229h-249l-363 610q-99 166 -223 449l-41 -2q18 -261 18 -598v-459h-176z" />
<glyph unicode="O" horiz-adv-x="1347" d="M66 616q0 291 161.5 464t446.5 173q286 0 447 -173t161 -464q0 -293 -160 -467t-448 -174q-289 0 -448.5 174t-159.5 467zM252 618q0 -222 105.5 -350.5t316.5 -128.5t316.5 127.5t105.5 351.5q0 217 -106.5 343t-315.5 126t-315.5 -126t-106.5 -343z" />
<glyph unicode="P" horiz-adv-x="1085" d="M137 0v1229h479q435 0 435 -395q0 -177 -113 -286.5t-317 -109.5h-295v-438h-189zM326 596h274q139 0 201.5 56.5t62.5 178.5q0 126 -59.5 181t-206.5 55h-272v-471z" />
<glyph unicode="Q" horiz-adv-x="1349" d="M66 616q0 291 161.5 464t446.5 173q286 0 447 -173t161 -464q0 -176 -59 -312.5t-174 -219.5l168 -258v-23h-197l-119 207q-103 -35 -227 -35q-289 0 -448.5 174t-159.5 467zM252 618q0 -222 105.5 -350.5t316.5 -128.5t316.5 127.5t105.5 351.5q0 217 -106.5 343 t-315.5 126t-315.5 -126t-106.5 -343z" />
<glyph unicode="R" horiz-adv-x="1202" d="M137 0v1229h496q438 0 438 -361q0 -145 -75.5 -238.5t-217.5 -125.5l365 -481v-23h-217l-340 487h-260v-487h-189zM326 649h288q132 0 201.5 54t69.5 161q0 106 -61 155.5t-208 49.5h-290v-420z" />
<glyph unicode="S" horiz-adv-x="1138" d="M59 383l179 39q26 -146 114.5 -218.5t245.5 -72.5q142 0 211.5 50.5t69.5 140.5t-70.5 138.5t-253.5 80.5q-242 43 -343 133t-101 237q0 160 115.5 251t336.5 91q111 0 194.5 -25.5t138.5 -75t88.5 -113.5t51.5 -150l-186 -37q-29 130 -93.5 189t-201.5 59 q-129 0 -193.5 -46.5t-64.5 -131.5q0 -41 13.5 -71.5t48 -59t100 -51t164.5 -40.5q105 -20 183 -48t127.5 -60.5t79.5 -74.5t42 -85.5t12 -97.5q0 -170 -116 -264.5t-359 -94.5q-477 3 -533 408z" />
<glyph unicode="T" horiz-adv-x="1044" d="M31 1057v172h983v-172h-398v-1057h-188v1057h-397z" />
<glyph unicode="U" horiz-adv-x="1288" d="M137 465v764h189v-744q0 -79 16 -139t52.5 -107t101.5 -71.5t157 -24.5q171 0 240.5 85t69.5 247v754h188v-764q0 -238 -127.5 -363t-370.5 -125q-248 0 -382 124.5t-134 363.5z" />
<glyph unicode="V" horiz-adv-x="1189" d="M-4 1229h201l233 -639q83 -232 141 -424h52q47 149 145 424l231 639h195l-475 -1229h-246z" />
<glyph unicode="W" horiz-adv-x="1720" d="M2 1229h205l137 -584q74 -346 98 -481h58q57 309 100 481l148 584h241l148 -586q42 -180 98 -479h55q15 82 99 481l135 584h194l-321 -1229h-279l-123 514q-71 299 -116 549h-43q-56 -292 -117 -549l-121 -514h-272z" />
<glyph unicode="X" horiz-adv-x="1138" d="M23 0v23l413 602l-407 581v23h202l326 -516h39l319 516h195v-23l-410 -596l418 -587v-23h-205l-335 530h-33l-330 -530h-192z" />
<glyph unicode="Y" horiz-adv-x="1091" d="M-12 1206v23h202l342 -656h31l342 656h199v-23l-463 -792v-414h-188v416z" />
<glyph unicode="Z" horiz-adv-x="1159" d="M72 0v170l766 887l-13 24q-242 -24 -411 -24h-320v172h973v-168l-772 -891l12 -25q253 27 430 27h332v-172h-997z" />
<glyph unicode="[" horiz-adv-x="602" d="M129 -383v1798h424v-155h-244v-1487h244v-156h-244h-180z" />
<glyph unicode="\" horiz-adv-x="643" d="M37 1315h180l414 -1624h-185z" />
<glyph unicode="]" horiz-adv-x="602" d="M49 -227h242v1487h-242v155h422v-1798h-61h-361v156z" />
<glyph unicode="^" horiz-adv-x="1009" d="M66 586l393 491h92l395 -491l-88 -78l-352 395l-352 -395z" />
<glyph unicode="_" horiz-adv-x="942" d="M0 0h942v-150h-942v150z" />
<glyph unicode="`" horiz-adv-x="634" d="M43 1298l72 136l473 -279l-45 -88z" />
<glyph unicode="a" horiz-adv-x="1009" d="M68 246q0 131 85 208.5t255 77.5h307v78q0 111 -49 166t-162 55q-96 0 -152.5 -47t-79.5 -143l-168 41q30 141 133.5 219t272.5 78q196 0 289.5 -92.5t93.5 -274.5v-612h-170v227h-18q-37 -119 -125 -183t-215 -64q-140 0 -218.5 66t-78.5 200zM238 266q0 -63 44.5 -103 t143.5 -40q130 0 209.5 65.5t79.5 167.5v54h-281q-94 0 -145 -37t-51 -107z" />
<glyph unicode="b" horiz-adv-x="1095" d="M125 0v1315h178v-610h14q37 128 122.5 202t217.5 74q180 0 275.5 -130.5t95.5 -373.5q0 -242 -95.5 -372t-266.5 -130q-135 0 -225.5 77.5t-125.5 205.5h-12v-258h-178zM303 438q0 -136 77.5 -220.5t205.5 -84.5q266 0 266 344q0 174 -65 258t-201 84q-129 0 -206 -83 t-77 -224v-74z" />
<glyph unicode="c" horiz-adv-x="1048" d="M66 475q0 236 130 371t347 135q195 0 298.5 -89t133.5 -263l-166 -35q-27 114 -87.5 171.5t-182.5 57.5q-137 0 -214 -88.5t-77 -257.5q0 -161 77.5 -252.5t221.5 -91.5q64 0 111 18t77 53t47.5 73t32.5 92l164 -43q-69 -351 -430 -351q-227 0 -355 131.5t-128 368.5z " />
<glyph unicode="d" horiz-adv-x="1093" d="M66 475q0 243 97 374.5t273 131.5q135 0 220 -74.5t122 -204.5h13v613h178v-1315h-178v256h-13q-37 -128 -126 -204.5t-220 -76.5q-176 0 -271 129t-95 371zM242 475q0 -172 66 -256t202 -84q128 0 204.5 82t76.5 221v74q0 138 -76.5 222.5t-204.5 84.5 q-135 0 -201.5 -85t-66.5 -259z" />
<glyph unicode="e" horiz-adv-x="1038" d="M66 471q0 238 128.5 374t346.5 136q210 0 320 -118t110 -322q0 -51 -6 -115h-721q11 -147 87.5 -224t213.5 -77q62 0 108.5 14.5t76 42.5t47 60t30.5 75l156 -43q-77 -297 -418 -297q-225 0 -352 129t-127 365zM246 555h559q-13 285 -268 285q-127 0 -201.5 -72 t-89.5 -213z" />
<glyph unicode="f" horiz-adv-x="708" d="M39 809v147h172v62q0 150 80.5 236.5t236.5 86.5q82 0 160 -16l-8 -133q-90 12 -125 12q-86 0 -126 -47.5t-40 -142.5v-58h291v-147h-291v-809h-178v809h-172z" />
<glyph unicode="g" horiz-adv-x="1021" d="M27 -141q0 62 56.5 106t158.5 66v8q-119 26 -119 123q0 70 98 123l74 47q-104 34 -158.5 109.5t-54.5 181.5q0 161 108.5 247t305.5 86h465v-141h-115q-70 0 -199 12v-18q240 -49 240 -221q0 -135 -104.5 -210t-301.5 -75q-77 0 -159 21l-29 -43q-3 -5 -9 -14.5t-8.5 -14 t-6 -11.5t-4.5 -13t-1 -13q0 -57 101 -57q53 0 163 1t162 1q145 0 220 -60t75 -170q0 -146 -110 -212q-108 -64 -373 -64h-8h-17q-121 0 -207 13q-93 14 -145 41.5t-75 64t-23 86.5zM170 -90q0 -67 70.5 -95t259.5 -28q134 0 209.5 16t102 44.5t26.5 76.5q0 49 -37 79 t-113 30h-344q-83 0 -128.5 -37t-45.5 -86zM246 623q0 -93 56.5 -142t182.5 -49q246 0 246 191q0 91 -64 141.5t-186 50.5q-120 0 -177.5 -51t-57.5 -141z" />
<glyph unicode="h" d="M125 0v1315h178v-606h14q42 128 132.5 200t218.5 72q152 0 228.5 -93t76.5 -255v-633h-178v590q0 105 -50 167t-155 62q-130 0 -208.5 -74.5t-78.5 -197.5v-547h-178z" />
<glyph unicode="i" horiz-adv-x="466" d="M131 1141v162h205v-162h-205zM143 0v956h179v-956h-179z" />
<glyph unicode="j" horiz-adv-x="487" d="M-37 -324l10 156q37 -6 78 -6q115 0 115 156v972h178v-954q0 -157 -71 -244.5t-216 -87.5q-40 0 -94 8zM154 1141v162h202v-162h-202z" />
<glyph unicode="k" horiz-adv-x="987" d="M135 0v1315h178v-766h95l346 407h202v-22l-407 -449l442 -462v-23h-205l-376 414h-97v-414h-178z" />
<glyph unicode="l" horiz-adv-x="448" d="M135 0v1315h178v-1315h-178z" />
<glyph unicode="m" horiz-adv-x="1759" d="M125 0v956h174v-247h18q40 130 130 201t217 71q137 0 211 -76t86 -211h20q35 137 122.5 212t225.5 75q155 0 234 -93t79 -255v-633h-178v590q0 105 -50 167t-157 62q-130 0 -207 -74.5t-77 -197.5v-547h-178v590q0 105 -50 167t-157 62q-128 0 -206.5 -74.5t-78.5 -197.5 v-547h-178z" />
<glyph unicode="n" d="M125 0v956h174v-247h18q40 128 131.5 200t215.5 72q155 0 232 -92.5t77 -255.5v-633h-178v590q0 229 -207 229q-128 0 -206.5 -74.5t-78.5 -197.5v-547h-178z" />
<glyph unicode="o" d="M66 481q0 233 130 366.5t349 133.5t349 -133.5t130 -366.5q0 -235 -126.5 -370.5t-352.5 -135.5t-352.5 135.5t-126.5 370.5zM244 483q0 -166 75 -259t224 -93t226 93.5t77 258.5q0 163 -77.5 253.5t-223.5 90.5t-223.5 -90.5t-77.5 -253.5z" />
<glyph unicode="p" horiz-adv-x="1093" d="M125 -313v1269h178v-251h14q37 128 122.5 202t217.5 74q180 0 275.5 -130.5t95.5 -373.5q0 -242 -95.5 -372t-266.5 -130q-135 0 -225.5 77t-125.5 206h-12v-571h-178zM303 438q0 -136 77.5 -220.5t205.5 -84.5q266 0 266 344q0 174 -65 258t-201 84q-129 0 -206 -83 t-77 -224v-74z" />
<glyph unicode="q" horiz-adv-x="1093" d="M66 475q0 245 96 375.5t276 130.5q132 0 216.5 -73.5t123.5 -202.5h13v251h178v-1288h-178v586h-13q-37 -127 -126.5 -203t-223.5 -76q-171 0 -266.5 129.5t-95.5 370.5zM242 475q0 -342 268 -342q127 0 204 84.5t77 220.5v74q0 141 -76 224t-205 83q-136 0 -202 -84.5 t-66 -259.5z" />
<glyph unicode="r" horiz-adv-x="677" d="M125 0v956h172v-270l14 -2q36 151 108.5 217t186.5 66h37v-197h-49q-156 0 -223.5 -68t-67.5 -229v-473h-178z" />
<glyph unicode="s" horiz-adv-x="935" d="M53 291l162 33q27 -103 91.5 -158t191.5 -55q201 0 204 143q0 67 -56.5 102.5t-207.5 61.5q-183 33 -261.5 100.5t-78.5 183.5q0 129 94 204t273 75q92 0 159.5 -19t111 -57.5t69.5 -87t43 -117.5l-164 -34q-23 98 -75.5 140t-147.5 42q-94 0 -142.5 -35.5t-48.5 -99.5 q0 -61 52 -99.5t186 -60.5q201 -36 283.5 -105t82.5 -188q0 -133 -93 -209t-285 -76q-109 0 -189 22t-130.5 65.5t-79.5 98.5t-44 130z" />
<glyph unicode="t" horiz-adv-x="720" d="M39 809v147h145v269h178v-269h306v-147h-306v-504q0 -83 35 -123.5t113 -40.5q54 0 145 25l23 -158q-109 -33 -205 -33q-145 0 -217 84.5t-72 225.5v524h-145z" />
<glyph unicode="u" d="M117 326v630h178v-587q0 -230 209 -230q127 0 204.5 74.5t77.5 196.5v546h179v-956h-174v250h-19q-38 -129 -129 -202t-215 -73q-156 0 -233.5 94t-77.5 257z" />
<glyph unicode="v" horiz-adv-x="968" d="M-6 956h194l129 -366q111 -307 150 -436h41q32 103 149 436l127 366h191l-375 -956h-227z" />
<glyph unicode="w" horiz-adv-x="1513" d="M4 956h184l105 -366q87 -301 119 -451h39q42 208 108 445l103 372h204l103 -372q66 -228 110 -445h37q29 128 117 451l98 366h178l-299 -956h-233l-115 422q-48 169 -94 397h-31q-47 -230 -92 -397l-110 -422h-230z" />
<glyph unicode="x" horiz-adv-x="1005" d="M41 0v23l328 473l-326 438v22h199l260 -409h16l252 409h184v-22l-321 -461l328 -450v-23h-197l-262 422h-21l-250 -422h-190z" />
<glyph unicode="y" horiz-adv-x="985" d="M8 956h197l123 -342q130 -361 161 -456h31q18 54 74.5 218t79.5 236l117 344h190l-406 -968q-76 -181 -172.5 -260.5t-246.5 -79.5q-60 0 -146 12l29 164q75 -14 123 -14q90 0 144 38.5t108 159.5z" />
<glyph unicode="z" horiz-adv-x="997" d="M78 0v158l631 649l-11 20q-225 -26 -391 -26h-211v155h807v-157l-631 -649l11 -21q238 29 360 29h266v-158h-831z" />
<glyph unicode="{" horiz-adv-x="747" d="M41 453v155h141q100 0 159.5 38t59.5 116q0 43 -18.5 88t-44.5 85t-52.5 81t-45 90.5t-19.5 99.5q0 113 82 177.5t242 64.5q32 0 155 -6l-2 -152q-82 4 -112 4q-92 0 -133 -30.5t-41 -96.5q0 -42 22.5 -93t50 -92t50 -100.5t22.5 -115.5q0 -96 -65.5 -150t-198.5 -73v-21 q143 -13 203.5 -64t60.5 -151q0 -57 -23.5 -116.5t-52 -101t-52 -92.5t-23.5 -93q0 -66 41 -96.5t133 -30.5q26 0 112 4l2 -152q-123 -6 -155 -6q-161 0 -242.5 64t-81.5 178q0 60 28 122t61 106t61 101.5t28 108.5q0 77 -50.5 113.5t-160.5 36.5h-141z" />
<glyph unicode="|" horiz-adv-x="438" d="M131 -360v1779h176v-1779h-176z" />
<glyph unicode="}" horiz-adv-x="747" d="M47 -381l2 150q41 -2 113 -2q92 0 132 30.5t40 96.5q0 42 -23 92.5t-50 91.5t-50 100.5t-23 116.5q0 95 66 148.5t201 74.5v21q-144 13 -205.5 63.5t-61.5 151.5q0 57 24 116.5t53 100.5t53 91.5t24 92.5q0 66 -41 96.5t-133 30.5q-27 0 -113 -4l-2 152q62 6 156 6 q162 0 242.5 -63t80.5 -177q0 -60 -28 -123t-61 -107t-61 -101.5t-28 -108.5q0 -76 51 -112t160 -36h142v-155h-142q-99 0 -159 -39t-60 -117q0 -42 18.5 -87t44.5 -85t52.5 -81.5t45 -91t19.5 -99.5q0 -113 -81.5 -176.5t-241.5 -63.5q-95 0 -156 6z" />
<glyph unicode="~" horiz-adv-x="1058" d="M86 684q0 174 59 262t172 88q59 0 106 -25t75 -62t56 -81t49 -81t52.5 -62t69.5 -25q140 0 123 324h110q9 -71 9 -131q0 -174 -61 -263t-171 -89q-69 0 -122 34.5t-85.5 83.5t-61 97.5t-63 83t-75.5 34.5q-73 0 -100 -73.5t-21 -247.5h-113q-8 65 -8 133z" />
<glyph unicode="&#xa2;" horiz-adv-x="1042" d="M66 475q0 210 110 337.5t299 148.5l-14 245h157l-12 -243q164 -13 253 -97.5t116 -236.5l-166 -35q-27 111 -87 166t-181 55q-139 0 -216 -86t-77 -252q0 -156 77 -246t222 -90q64 0 111 17t77 50.5t48 71t32 89.5l164 -43q-57 -306 -373 -332l12 -248h-157l14 250 q-195 20 -302 144t-107 335z" />
<glyph unicode="&#xa3;" horiz-adv-x="1116" d="M70 0v158h202q23 80 23 180q0 49 -14 121h-209v141h174q-49 176 -49 295q0 165 103.5 259.5t305.5 94.5q86 0 153.5 -20.5t112.5 -54.5t77.5 -86t50.5 -107t30 -125l-164 -35q-31 142 -88.5 206.5t-171.5 64.5q-121 0 -176 -60.5t-55 -159.5q0 -27 2 -54t7.5 -61 t8.5 -49.5t12.5 -58t10.5 -49.5h475v-141h-447q5 -50 5 -66q0 -143 -60 -235h647v-158h-966z" />
<glyph unicode="&#xa5;" horiz-adv-x="1169" d="M29 1206v23h200l342 -656h31l342 656h199v-23l-262 -448h211v-133h-289l-90 -154h379v-129h-412v-342h-188v342h-414v129h383l-92 154h-291v133h213z" />
<glyph unicode="&#xa8;" horiz-adv-x="669" d="M57 1137v184h189v-184h-189zM424 1137v184h186v-184h-186z" />
<glyph unicode="&#xa9;" horiz-adv-x="1851" d="M98 616q0 187 51 336.5t151.5 258.5t259.5 168t366 59t366 -59t259.5 -168t151 -258.5t50.5 -336.5t-50 -337t-150 -259.5t-259 -169t-368 -59.5q-208 0 -367 59.5t-259.5 169t-151 259.5t-50.5 337zM254 616q0 -157 37.5 -279.5t116.5 -214t210 -140t308 -48.5 q178 0 309 48.5t209 140t115.5 214t37.5 279.5t-38 279.5t-117.5 213t-209.5 138t-306 47.5t-306 -48t-209.5 -138t-118 -212.5t-38.5 -279.5zM524 616q0 206 109 322.5t299 116.5q182 0 268.5 -84t95.5 -250l-153 -14q-10 104 -56.5 155t-154.5 51q-118 0 -181 -74 t-63 -216q0 -140 60.5 -219.5t179.5 -79.5q109 0 159.5 48.5t55.5 139.5l157 -14q-18 -318 -370 -318q-188 0 -297 113.5t-109 322.5z" />
<glyph unicode="&#xab;" horiz-adv-x="1267" d="M41 510v37l496 440h174v-22l-484 -433v-8l484 -432v-22h-174zM547 510v37l495 440h172v-22l-483 -433v-8l483 -432v-22h-172z" />
<glyph unicode="&#xad;" horiz-adv-x="716" d="M43 412v170h631v-170h-631z" />
<glyph unicode="&#xae;" horiz-adv-x="1853" d="M98 616q0 187 51 336.5t151.5 258.5t259.5 168t366 59t366 -59t259.5 -168t151 -258.5t50.5 -336.5t-50 -337t-150 -259.5t-259 -169t-368 -59.5q-208 0 -367 59.5t-259.5 169t-151 259.5t-50.5 337zM254 616q0 -157 37.5 -279.5t116.5 -214t210 -140t308 -48.5 q178 0 309 48.5t209 140t115.5 214t37.5 279.5t-38 279.5t-117.5 213t-209.5 138t-306 47.5t-306 -48t-209.5 -138t-118 -212.5t-38.5 -279.5zM565 211v817h414q161 0 238 -64.5t77 -193.5q0 -100 -55 -164t-158 -84l258 -295v-16h-178l-241 301h-195v-301h-160zM725 627 h238q172 0 172 137q0 73 -39 105t-133 32h-238v-274z" />
<glyph unicode="&#xb4;" horiz-adv-x="634" d="M43 1155l473 277l70 -132l-498 -233z" />
<glyph unicode="&#xb8;" horiz-adv-x="464" d="M45 -285l49 74q74 -49 158 -49q90 0 90 59q0 58 -84 58q-34 0 -84 -15l-59 27l65 178l84 -4l-57 -147q43 16 82 16q149 0 149 -117q0 -52 -44 -95.5t-140 -43.5q-129 0 -209 59z" />
<glyph unicode="&#xbb;" horiz-adv-x="1273" d="M59 57v25l482 430v10l-482 430v25h172l496 -442v-37l-496 -441h-172zM563 57v25l484 430v10l-484 430v25h174l496 -442v-37l-496 -441h-174z" />
<glyph unicode="&#xd6;" horiz-adv-x="1347" d="M66 616q0 291 161.5 464t446.5 173q286 0 447 -173t161 -464q0 -293 -160 -467t-448 -174q-289 0 -448.5 174t-159.5 467zM252 618q0 -222 105.5 -350.5t316.5 -128.5t316.5 127.5t105.5 351.5q0 217 -106.5 343t-315.5 126t-315.5 -126t-106.5 -343zM395 1358v184h187 v-184h-187zM760 1358v184h188v-184h-188z" />
<glyph unicode="&#xdc;" horiz-adv-x="1288" d="M137 465v764h189v-744q0 -79 16 -139t52.5 -107t101.5 -71.5t157 -24.5q171 0 240.5 85t69.5 247v754h188v-764q0 -238 -127.5 -363t-370.5 -125q-248 0 -382 124.5t-134 363.5zM367 1358v184h186v-184h-186zM731 1358v184h187v-184h-187z" />
<glyph unicode="&#xf6;" d="M66 481q0 233 130 366.5t349 133.5t349 -133.5t130 -366.5q0 -235 -126.5 -370.5t-352.5 -135.5t-352.5 135.5t-126.5 370.5zM244 483q0 -166 75 -259t224 -93t226 93.5t77 258.5q0 163 -77.5 253.5t-223.5 90.5t-223.5 -90.5t-77.5 -253.5zM260 1137v184h189v-184h-189z M627 1137v184h186v-184h-186z" />
<glyph unicode="&#xfc;" d="M117 326v630h178v-587q0 -230 209 -230q127 0 204.5 74.5t77.5 196.5v546h179v-956h-174v250h-19q-38 -129 -129 -202t-215 -73q-156 0 -233.5 94t-77.5 257zM264 1137v184h189v-184h-189zM631 1137v184h186v-184h-186z" />
<glyph unicode="&#x106;" horiz-adv-x="1275" d="M66 616q0 295 157 466t432 171q232 0 373.5 -121.5t175.5 -340.5l-178 -35q-67 331 -373 331q-199 0 -299 -126.5t-100 -344.5q0 -226 98.5 -351.5t296.5 -125.5q167 0 258.5 86t124.5 256l178 -32q-33 -224 -177 -349t-384 -125q-278 0 -430.5 172t-152.5 469zM438 1446 l520 190l48 -145l-539 -141z" />
<glyph unicode="&#x107;" horiz-adv-x="1048" d="M66 475q0 236 130 371t347 135q195 0 298.5 -89t133.5 -263l-166 -35q-27 114 -87.5 171.5t-182.5 57.5q-137 0 -214 -88.5t-77 -257.5q0 -161 77.5 -252.5t221.5 -91.5q64 0 111 18t77 53t47.5 73t32.5 92l164 -43q-69 -351 -430 -351q-227 0 -355 131.5t-128 368.5z M346 1155l475 277l70 -132l-500 -233z" />
<glyph unicode="&#x10c;" horiz-adv-x="1275" d="M66 616q0 295 157 466t432 171q232 0 373.5 -121.5t175.5 -340.5l-178 -35q-67 331 -373 331q-199 0 -299 -126.5t-100 -344.5q0 -226 98.5 -351.5t296.5 -125.5q167 0 258.5 86t124.5 256l178 -32q-33 -224 -177 -349t-384 -125q-278 0 -430.5 172t-152.5 469zM344 1571 l59 74l244 -172l244 172l57 -74l-266 -240h-70z" />
<glyph unicode="&#x10d;" horiz-adv-x="1048" d="M66 475q0 236 130 371t347 135q195 0 298.5 -89t133.5 -263l-166 -35q-27 114 -87.5 171.5t-182.5 57.5q-137 0 -214 -88.5t-77 -257.5q0 -161 77.5 -252.5t221.5 -91.5q64 0 111 18t77 53t47.5 73t32.5 92l164 -43q-69 -351 -430 -351q-227 0 -355 131.5t-128 368.5z M231 1370l68 68l236 -209l239 209l66 -68l-271 -287h-69z" />
<glyph unicode="&#x110;" horiz-adv-x="1361" d="M49 551v125h154v553h479q310 0 463 -154.5t153 -451.5q0 -292 -163 -457.5t-449 -165.5h-483v551h-154zM391 158h281q228 0 333 119.5t105 345.5q0 233 -108 340.5t-345 107.5h-266v-395h344v-125h-344v-393z" />
<glyph unicode="&#x111;" horiz-adv-x="1122" d="M66 475q0 243 97 374.5t273 131.5q135 0 220 -74.5t122 -204.5h13v385h-291v109h291v119h178v-119h123v-109h-123v-1087h-178v256h-13q-37 -128 -126 -204.5t-220 -76.5q-176 0 -271 129t-95 371zM242 475q0 -172 66 -256t202 -84q128 0 204.5 82t76.5 221v74 q0 138 -76.5 222.5t-204.5 84.5q-135 0 -201.5 -85t-66.5 -259z" />
<glyph unicode="&#x160;" horiz-adv-x="1138" d="M59 383l179 39q26 -146 114.5 -218.5t245.5 -72.5q142 0 211.5 50.5t69.5 140.5t-70.5 138.5t-253.5 80.5q-242 43 -343 133t-101 237q0 160 115.5 251t336.5 91q111 0 194.5 -25.5t138.5 -75t88.5 -113.5t51.5 -150l-186 -37q-29 130 -93.5 189t-201.5 59 q-129 0 -193.5 -46.5t-64.5 -131.5q0 -41 13.5 -71.5t48 -59t100 -51t164.5 -40.5q105 -20 183 -48t127.5 -60.5t79.5 -74.5t42 -85.5t12 -97.5q0 -170 -116 -264.5t-359 -94.5q-477 3 -533 408zM262 1571l60 74l243 -172l244 172l59 -74l-268 -240h-70z" />
<glyph unicode="&#x161;" horiz-adv-x="942" d="M53 291l162 33q27 -103 91.5 -158t191.5 -55q201 0 204 143q0 67 -56.5 102.5t-207.5 61.5q-183 33 -261.5 100.5t-78.5 183.5q0 129 94 204t273 75q92 0 159.5 -19t111 -57.5t69.5 -87t43 -117.5l-164 -34q-23 98 -75.5 140t-147.5 42q-94 0 -142.5 -35.5t-48.5 -99.5 q0 -61 52 -99.5t186 -60.5q201 -36 283.5 -105t82.5 -188q0 -133 -93 -209t-285 -76q-109 0 -189 22t-130.5 65.5t-79.5 98.5t-44 130zM170 1370l68 68l235 -209l240 209l65 -68l-270 -287h-70z" />
<glyph unicode="&#x17d;" horiz-adv-x="1159" d="M72 0v170l766 887l-13 24q-242 -24 -411 -24h-320v172h973v-168l-772 -891l12 -25q253 27 430 27h332v-172h-997zM268 1571l60 74l243 -172l244 172l59 -74l-268 -240h-69z" />
<glyph unicode="&#x17e;" horiz-adv-x="997" d="M78 0v158l631 649l-11 20q-225 -26 -391 -26h-211v155h807v-157l-631 -649l11 -21q238 29 360 29h266v-158h-831zM190 1370l68 68l238 -209l237 209l66 -68l-269 -287h-69z" />
<glyph unicode="&#x2c6;" horiz-adv-x="690" d="M41 1135l270 286h70l268 -286l-67 -68l-236 209l-240 -209z" />
<glyph unicode="&#x2da;" horiz-adv-x="595" d="M70 1298q0 103 62 164.5t167 61.5q104 0 165.5 -61t61.5 -163q0 -103 -61.5 -164t-165.5 -61q-105 0 -167 60.5t-62 162.5zM174 1298q0 -59 33.5 -91.5t91.5 -32.5q57 0 90 33t33 93q0 59 -33.5 92t-89.5 33q-58 0 -91.5 -33t-33.5 -94z" />
<glyph unicode="&#x2dc;" horiz-adv-x="706" d="M47 1200q0 112 44.5 169.5t121.5 57.5q45 0 81.5 -20.5t60.5 -50t44.5 -59t44.5 -50t50 -20.5q45 0 61.5 46t13.5 146h93q6 -49 6 -92q0 -113 -44.5 -171t-119.5 -58q-41 0 -76 20.5t-59 50t-45.5 59t-47 50t-53.5 20.5q-47 0 -64.5 -42.5t-15.5 -145.5h-90q-6 52 -6 90z " />
<glyph unicode="&#x2000;" horiz-adv-x="822" />
<glyph unicode="&#x2001;" horiz-adv-x="1645" />
<glyph unicode="&#x2002;" horiz-adv-x="822" />
<glyph unicode="&#x2003;" horiz-adv-x="1645" />
<glyph unicode="&#x2004;" horiz-adv-x="548" />
<glyph unicode="&#x2005;" horiz-adv-x="411" />
<glyph unicode="&#x2006;" horiz-adv-x="274" />
<glyph unicode="&#x2007;" horiz-adv-x="274" />
<glyph unicode="&#x2008;" horiz-adv-x="205" />
<glyph unicode="&#x2009;" horiz-adv-x="329" />
<glyph unicode="&#x200a;" horiz-adv-x="91" />
<glyph unicode="&#x2010;" horiz-adv-x="716" d="M43 412v170h631v-170h-631z" />
<glyph unicode="&#x2011;" horiz-adv-x="716" d="M43 412v170h631v-170h-631z" />
<glyph unicode="&#x2012;" horiz-adv-x="716" d="M43 412v170h631v-170h-631z" />
<glyph unicode="&#x2013;" horiz-adv-x="974" d="M43 418v164h889v-164h-889z" />
<glyph unicode="&#x2014;" horiz-adv-x="1761" d="M43 418v164h1675v-164h-1675z" />
<glyph unicode="&#x2018;" horiz-adv-x="397" d="M57 672l176 557h101v-12l-90 -545h-187z" />
<glyph unicode="&#x2019;" horiz-adv-x="397" d="M63 672v12l91 545h186l-176 -557h-101z" />
<glyph unicode="&#x201a;" horiz-adv-x="391" d="M55 -287l92 547h187l-176 -559h-103v12z" />
<glyph unicode="&#x201c;" horiz-adv-x="727" d="M70 672l176 557h100v-12l-90 -545h-186zM401 672l174 557h103v-12l-90 -545h-187z" />
<glyph unicode="&#x201d;" horiz-adv-x="729" d="M63 672v12l91 545h186l-176 -557h-101zM393 672v12l92 545h187l-176 -557h-103z" />
<glyph unicode="&#x201e;" horiz-adv-x="708" d="M31 -287l90 547h186l-176 -559h-100v12zM360 -287l93 547h186l-176 -559h-103v12z" />
<glyph unicode="&#x2026;" horiz-adv-x="1157" d="M78 0v219h221v-219h-221zM469 0v219h223v-219h-223zM860 0v219h223v-219h-223z" />
<glyph unicode="&#x202f;" horiz-adv-x="329" />
<glyph unicode="&#x2039;" horiz-adv-x="761" d="M41 510v37l496 440h174v-22l-484 -433v-8l484 -432v-22h-174z" />
<glyph unicode="&#x203a;" horiz-adv-x="768" d="M59 57v25l482 430v10l-482 430v25h172l496 -440v-37l-496 -443h-172z" />
<glyph unicode="&#x205f;" horiz-adv-x="411" />
<glyph unicode="&#x20ac;" horiz-adv-x="1337" d="M41 446v95h131q-2 25 -2 75q0 42 2 62h-131v94h141q37 226 180 353.5t367 127.5q221 0 354.5 -121t167.5 -341l-178 -35q-33 166 -117 250t-231 84q-152 0 -241.5 -82.5t-116.5 -235.5h333v-94h-346q0 -9 -1 -30.5t-1 -31.5q0 -25 4 -75h344v-95h-331q62 -311 354 -311 q154 0 238 86.5t118 259.5l178 -32q-33 -224 -169.5 -349t-364.5 -125q-223 0 -362.5 124t-178.5 347h-141z" />
<glyph unicode="&#x2122;" horiz-adv-x="1824" d="M45 1104v125h641v-125h-248v-582h-145v582h-248zM803 522v707h246l77 -195q87 -205 125 -325h27q56 157 127 327l80 193h229v-707h-145v256q0 42 6 324h-29q-61 -163 -131 -328l-96 -223h-131l-92 219q-97 219 -138 332h-32q6 -144 6 -324v-256h-129z" />
<glyph unicode="&#x25fc;" horiz-adv-x="952" d="M0 0v952h952v-952h-952z" />
</font>
</defs>
</svg>
